<?xml version="1.0" standalone="no"?>
<!DOCTYPE svg PUBLIC "-//W3C//DTD SVG 1.1//EN" "http://www.w3.org/Graphics/SVG/1.1/DTD/svg11.dtd">
<svg xmlns="http://www.w3.org/2000/svg">
<metadata>Copyright (C) 2019 by original authors @ fontello.com</metadata>
<defs>
<font id="ltx-windazo" horiz-adv-x="1000" >
<font-face font-family="ltx-windazo" font-weight="400" font-stretch="normal" units-per-em="1000" ascent="850" descent="-150" />
<missing-glyph horiz-adv-x="1000" />
<glyph glyph-name="price_download_2" unicode="&#xe800;" d="M481 173c11-12 30-12 41 0l126 125c11 12 11 30 0 42-12 11-30 11-42 0l-75-76v212c0 16-13 29-30 29-16 0-29-13-29-29v-212l-75 76c-12 11-31 11-42 0-11-12-11-31 0-42l126-125z m146-76h-251c-16 0-29-13-29-29 0-17 13-30 29-30h251c16 0 29 13 29 30 0 16-13 29-29 29z m157 753h-439c-8 0-16-3-21-9l-188-188c-6-5-9-13-9-21v-690c0-51 41-92 92-92h565c50 0 92 41 92 92v816c0 51-41 92-92 92z m-437-69v-117c0-18-15-33-34-33h-117l151 150z m470-839c0-18-14-33-33-33h-565c-18 0-33 15-33 33v630h127c51 0 92 41 92 92v127h379c18 0 33-14 33-33v-816z" horiz-adv-x="1000" />

<glyph glyph-name="left-arrow" unicode="&#xe801;" d="M976 363h-925l57 58c5 5 5 13 0 18-5 5-13 5-18 0l-80-80c-5-5-5-13 0-18l80-80c2-2 6-3 9-3s7 1 9 3c5 5 5 14 0 19l-57 57h925c7 0 13 6 13 13 0 7-6 13-13 13z" horiz-adv-x="1000" />

<glyph glyph-name="manual" unicode="&#xe802;" d="M128 733v-652c0-65 52-117 117-117h50v-114l107 48 108-48v114h362v886h-627c-65 0-117-53-117-117z m323-792l-49 22-49-22v81h98v-81z m363 81h-304v59h-215v-59h-50c-32 0-59 27-59 59 0 32 27 59 59 59h569v-118z m0 176h-569c-21 0-41-5-59-16v551c0 32 27 58 59 58h569v-593z m-119 268v58h-44c-4 21-12 40-23 57l31 31-42 42-31-32c-17 12-36 20-57 24v44h-58v-44c-21-4-40-12-57-24l-31 32-42-42 32-31c-12-17-20-36-24-57h-44v-58h44c4-21 12-40 24-57l-32-32 42-41 31 31c17-11 36-19 57-23v-44h58v44c21 4 40 12 57 23l31-31 42 41-31 32c11 17 19 36 23 57h44z m-195-66c-52 0-95 42-95 95s43 95 95 95c53 0 95-43 95-95s-42-95-95-95z" horiz-adv-x="1000" />

<glyph glyph-name="phone_top" unicode="&#xe803;" d="M853 704c-195 195-511 195-707 0-188-188-195-489-21-685l6-4c-19-41-52-92-103-117-17-8-13-34 5-36 57-9 138 1 213 58l1-1c192-113 442-87 607 77 195 196 195 512-1 708z m-188-568c-11-11-23-21-33-33-15-17-35-23-56-21-32 1-61 12-89 26-63 30-116 72-161 125-33 40-60 83-78 131-9 23-15 47-13 73 1 15 7 29 18 40 13 11 24 24 37 36 16 16 36 15 52 0 10-10 19-20 29-30 9-9 19-18 28-28 17-17 17-36 0-53-11-12-23-24-36-36-3-3-3-6-1-10 7-19 19-36 32-51 26-33 55-61 91-83 7-5 16-8 23-12 4-3 7-2 10 1 12 13 25 25 37 37 16 16 36 16 51 0 20-20 39-39 59-58 16-17 16-37 0-54z m-185 323l7 45c43-6 82-26 113-57 29-29 48-66 55-106l-44-8c-6 31-21 60-43 82-24 24-54 40-88 44z m247-118c-10 58-37 111-79 153-44 44-100 72-162 80l6 45c72-10 137-42 188-94 48-48 80-109 91-177l-44-7z" horiz-adv-x="1000" />

<glyph glyph-name="right-arrow" unicode="&#xe806;" d="M7 350c0-7 5-13 13-13h925l-58-57c-5-5-5-14 0-19 3-2 6-3 10-3 3 0 6 1 9 3l79 80c5 5 5 13 0 18l-79 80c-5 5-13 5-18 0-5-5-5-14 0-19l57-57h-926c-7 0-12-6-12-13z" horiz-adv-x="1000" />

<glyph glyph-name="ruler" unicode="&#xe807;" d="M985 850h-282c-8 0-15-7-15-15s7-14 15-14h268v-121h-57v41c0 8-6 15-14 15-8 0-15-7-15-15v-41h-63v41c0 8-7 15-15 15s-15-7-15-15v-41h-63v41c0 8-6 15-14 15s-15-7-15-15v-41h-63v41c0 8-7 15-15 15s-15-7-15-15v-41h-63v41c0 8-6 15-15 15s-14-7-14-15v-41h-63v41c0 8-7 15-15 15s-15-7-15-15v-41h-63v41c0 8-7 15-15 15s-14-7-14-15v-41h-64v41c0 8-6 15-14 15-8 0-15-7-15-15v-41h-57v121h464c8 0 15 6 15 14s-7 15-15 15h-629c-8 0-15-7-15-15v-150-171c0-8 7-14 15-14s14 6 14 14v156h121v-57h-41c-8 0-15-7-15-15s7-14 15-14h41v-64h-41c-8 0-15-6-15-14 0-8 7-15 15-15h41v-63h-41c-8 0-15-7-15-15s7-14 15-14h41v-64h-41c-8 0-15-6-15-14s7-15 15-15h41v-63h-41c-8 0-15-7-15-15s7-15 15-15h41v-63h-41c-8 0-15-6-15-14s7-15 15-15h41v-63h-41c-8 0-15-7-15-15 0-8 7-15 15-15h41v-63h-41c-8 0-15-7-15-15s7-14 15-14h41v-57h-121v577c0 8-6 14-14 14s-15-6-15-14v-591c0-8 7-15 15-15h150c8 0 15 7 15 15v71h555c0 0 0 0 0 0 0 0 1 0 1 0 0 0 1 0 1 0 0 0 0 0 1 0 0 0 0 0 0 0 0 0 1 0 1 0 0 0 0 0 1 0 0 1 0 1 0 1 0 0 1 0 1 0 0 0 0 0 1 0 0 0 0 1 0 1 0 0 1 0 1 0 0 0 0 0 0 0 1 1 1 1 1 1 0 0 1 1 1 1l165 165c1 1 1 1 1 2 0 0 1 0 1 0 0 1 1 2 1 3 1 0 1 1 1 1 0 1 0 2 0 3 0 1 0 1 0 1 0 0 0 0 0 0v136c0 8-6 15-14 15s-15-7-15-15v-121h-150c-8 0-15-6-15-15v-150h-540v705h427v-14c0-8 7-15 15-15s15 7 15 15v14h248v-360c0-9 7-15 15-15 8 0 14 6 14 15v360h71c8 0 15 7 15 15v150c0 8-7 15-15 15z m-835-150h-121v121h121v-121z m599-599h115l-115-115v115z m-127 178c-8 0-15-7-15-15v-29c0-8 7-15 15-15s15 7 15 15v29c0 8-7 15-15 15z m0 84c-8 0-15-7-15-15v-29c0-8 7-15 15-15s15 7 15 15v29c0 8-7 15-15 15z m-132-120h-30c-8 0-14-7-14-15s6-15 14-15h30c8 0 14 7 14 15s-6 15-14 15z m-253 0h-29c-8 0-15-7-15-15s7-15 15-15h29c8 0 15 7 15 15s-7 15-15 15z m84 0h-29c-8 0-15-7-15-15s7-15 15-15h29c8 0 15 7 15 15s-7 15-15 15z m84 0h-29c-8 0-15-7-15-15s7-15 15-15h29c9 0 15 7 15 15s-6 15-15 15z m169 0h-29c-9 0-15-7-15-15s6-15 15-15h29c8 0 15 7 15 15s-7 15-15 15z m48 204c-8 0-15-6-15-14v-30c0-8 7-15 15-15s15 7 15 15v30c0 8-7 14-15 14z m0 169c-8 0-15-7-15-15v-29c0-9 7-15 15-15s15 6 15 15v29c0 8-7 15-15 15z m0-85c-8 0-15-6-15-14v-30c0-8 7-14 15-14s15 6 15 14v30c0 8-7 14-15 14z" horiz-adv-x="1000" />

<glyph glyph-name="sketch" unicode="&#xe809;" d="M885 144c-6 3-12 1-16-3l-161-160c-4-5-5-11-3-16 3-6 8-9 14-9h160c8 0 15 6 15 14v161c0 6-4 11-9 13z m-131-159l111 110v-110h-111z m237 395c-5 2-12 1-16-4l-44-44v299c0 8-7 15-15 15h-112l41 41c0 0 0 0 0 0l39 39c8 9 13 20 13 32s-5 23-13 32l-46 45c-8 9-19 13-31 13s-23-4-32-13l-39-39-48-48-102-102h-456v145c0 8-6 15-15 15-63 0-115-52-115-116v-623c0-1 0-2 0-3 2-27 14-52 34-71 21-21 48-32 77-32h449l-85-84c-4-5-5-11-3-16 2-6 8-9 14-9h499c8 0 15 6 15 14v500c0 6-4 11-9 14z m-195 435c6 6 16 6 22 0l45-46c6-6 6-16 0-22l-29-29-67 67 29 30z m-50-50l67-68-27-27-67 68 27 27z m225-564h-27c-8 0-15-6-15-15 0-8 7-14 15-14h27v-44h-27c-8 0-15-7-15-15s7-15 15-15h27v-44h-27c-8 0-15-7-15-15 0-8 7-14 15-14h27v-45h-27c-8 0-15-6-15-14 0-9 7-15 15-15h27v-70h-450l148 148c6 6 6 15 0 21 0 1-1 1-2 2-5 4-13 3-18-2l-60-60h-478c-44 0-80 35-82 80 1 3 1 5 1 8 0 0 0 0 0 0 0 1 0 3 1 4 0 0 0 0 0 0 0 2 0 3 0 4 1 0 1 0 1 1 0 1 0 2 0 3 1 0 1 1 1 1 0 1 0 2 1 2 0 1 0 2 0 3 0 0 1 1 1 1 0 1 1 2 1 3 0 0 0 0 0 1 1 1 1 2 2 3 0 0 0 0 0 0 11 24 33 42 60 47 0 0 0 0 0 0 1 1 3 1 4 1 0 0 0 0 1 0 1 0 2 0 3 1 0 0 1 0 1 0 1 0 2 0 3 0 0 0 1 0 1 0 2 0 3 0 4 0 9 0 15 7 15 15v106c0 8-6 15-15 15-8 0-14-7-14-15v-92c-25-4-48-15-66-32-2-2-4-4-6-6v546c0 43 31 78 72 85v-144-298 0c0-8 6-15 14-15 9 0 15 7 15 15v0 284h426l-81-81c-5-6-5-15 0-21 6-6 15-6 21 0l106 106c0 0 0 0 0 0l96 96 68-67-8-8c0 0 0 0 0 0l-296-296-68 67 59 59c5 5 5 15 0 20-6 6-15 6-21 0l-69-68c0-1 0-1-1-2 0 0 0 0 0 0 0 0 0-1-1-1 0 0 0 0 0 0 0-1 0-1 0-1-1 0-1-1-1-1 0 0 0 0 0-1 0 0 0 0 0 0l-29-81-19-55c-1-1-1-2-1-2h-49c-8 0-14-7-14-15 0-8 6-15 14-15h407c8 0 14 7 14 15 0 8-6 15-14 15h-292l90 31c0 0 0 0 0 0 0 0 1 1 1 1 0 0 0 0 0 0 1 0 1 0 1 0 0 1 1 1 1 1 0 0 0 0 1 0 0 0 0 1 0 1 0 0 1 0 1 1l302 302h128v-314l-210-210c-6-6-6-15 0-21 0 0 0 0 1-1 3-2 6-3 9-3s7 1 9 3c1 1 1 1 1 1 0 0 0 0 0 0l259 259v-130z m-536 130l-42-15-28 28 15 42 55-55z" horiz-adv-x="1000" />

<glyph glyph-name="stage" unicode="&#xe80a;" d="M985 690c-8 0-14-7-14-15v-626h-30v728c0 8-6 14-14 14h-854c-8 0-14-6-14-14v-728h-30v64c0 8-6 14-14 14s-15-6-15-14v-78c0-8 7-15 15-15h44v-5c0-8 6-15 14-15h149c5 0 9 2 11 5 3 4 4 8 4 12l-1 3h452c8 0 14 7 14 15 0 8-6 14-14 14h-455l-4 30h542l-3-30h-18c-8 0-15-6-15-14 0-8 7-15 15-15h14l-1-3c0-4 1-8 4-12 3-3 7-5 11-5h149c8 0 14 7 14 15v5h44c8 0 15 7 15 15v640c0 8-7 15-15 15z m-166-322c-8 0-14 7-14 15 0 8 6 14 14 14h93v-29z m-40 394l64-261c1-7 7-11 14-11 1 0 2 0 4 0 7 2 12 10 10 18l-62 254h42l12-145c1-7 7-13 15-13 0 0 1 0 1 0 8 1 14 8 14 16l-13 142h32v-335h-79l-83 335z m-659 0l-12-142c-1-8 5-15 13-16 0 0 1 0 1 0 8 0 14 6 15 13l12 145h42l-62-254c-2-8 3-16 11-18 1 0 2 0 3 0 7 0 13 4 14 11l64 261h29l-83-335h-79v335z m61-394h-93v29h93c8 0 14-6 14-14 0-8-6-15-14-15z m-93-338v309h77l41-309z m106 311c18 5 31 22 31 42 0 18-12 34-28 40l83 339h205v-654h-260z m321-233v654h205l83-339c-16-6-28-22-28-40 0-20 13-37 31-42l-31-233z m397-78h-117l40 309h77z m0 0m73 820h-970c-8 0-15-7-15-15v-660c0-8 7-14 15-14s14 6 14 14v646h942v-83c0-8 6-15 14-15s15 7 15 15v97c0 8-7 15-15 15z m0 0" horiz-adv-x="1000" />

<glyph glyph-name="pantone" unicode="&#xe80b;" d="M293 55c0 49-39 88-88 88s-88-39-88-88 40-88 88-88 88 40 88 88z m-117 0c0 16 13 29 29 29s29-13 29-29-13-29-29-29-29 13-29 29z m0 0m795 205h-271l189 189c11 11 11 30 0 41l-249 249c-11 11-30 11-41 0l-189-189v271c0 16-13 29-29 29h-352c-16 0-29-13-29-29v-766c0-113 92-205 205-205h766c16 0 29 13 29 29v352c0 16-13 29-29 29z m-912 354h293v-119h-293z m436-62l207-207-83-83-207 207z m-85-163l168-168-168-168c0 1 0 336 0 336z m-60-479l236 236v-237h-237c0 0 1 0 1 1z m295 292h117v-293h-117z m-26 475l208-208-83-82-207 207z m-267 114v-119h-293v119z m-293-736v381h293v-381c0-81-66-146-147-146s-146 65-146 146z m882-146h-121v293h121z m0 0" horiz-adv-x="1000" />

<glyph glyph-name="protect" unicode="&#xe80c;" d="M926 691c-71 0-130 58-130 130v29h-592v-29c0-72-59-130-130-130h-29v-195c0-140 42-276 122-391 80-115 191-202 323-251l10-4 10 4c132 49 243 136 323 251 80 115 123 251 123 391v195h-30z m-29-195h0c0-128-39-252-112-357-71-103-169-181-285-226-116 45-214 123-285 226-73 105-112 229-112 357v139c81 12 144 76 157 156h480c13-80 76-144 157-156v-139z m-266 78l-194-194-68 68-124-125 192-192 319 319-125 124z m-303-251l41 42 68-68 194 194 42-41-236-236-109 109z" horiz-adv-x="1000" />

<glyph glyph-name="sound" unicode="&#xe80d;" d="M812 350c0-103-34-203-94-273-5-6-13-9-20-9-6 0-12 2-17 7-11 9-12 25-2 36 52 61 82 148 82 239 0 95-32 185-88 245-9 11-9 27 2 37 11 10 27 9 37-2 64-70 100-172 100-280z m-175 0c0-87-64-159-147-171v-247c0-14-12-26-26-26h-50c-8 0-15 4-20 9l-192 226h-82c-66 0-120 53-120 120v179c0 66 54 119 120 119h82l192 226c5 5 12 9 20 9h50c14 0 26-12 26-26v-247c83-12 147-84 147-171z m-449 158h-68c-38 0-68-31-68-68v-179c0-38 30-69 68-69h68v316z m250 234h-13l-185-218v-348l185-218h13v784z m147-392c0 58-41 107-95 119v-238c54 12 95 61 95 119z m259 432c-9 10-26 11-36 1-11-9-11-26-2-36 91-99 142-244 142-399 0-148-48-290-133-388-10-11-8-27 2-37 5-4 11-6 17-6 8 0 15 3 20 9 93 108 146 262 146 422 0 167-57 325-156 434z" horiz-adv-x="1000" />

<glyph glyph-name="sun" unicode="&#xe80e;" d="M971 379h-181c-6 59-29 112-64 155l128 128c11 12 11 30 0 42-12 11-30 11-42 0l-128-128c-43 35-96 58-154 64v181c0 16-13 29-30 29s-29-13-29-29v-181c-58-6-111-29-154-64l-129 128c-11 11-30 11-41 0-12-12-12-30 0-42l128-128c-35-43-58-96-64-154h-182c-16 0-29-14-29-30 0-16 13-29 29-29h182c6-58 29-112 64-155l-129-128c-11-11-11-30 0-41 6-6 14-9 21-9 8 0 15 3 21 9l128 128c43-35 96-59 155-65v-181c0-16 13-29 29-29 16 0 29 13 29 29v181c59 6 112 29 155 64l128-128c6-5 13-8 21-8 7 0 15 3 21 8 11 12 11 31 0 42l-128 128c35 43 58 96 64 155h181c16 0 29 13 29 29s-13 29-29 29z m-471 204c129 0 233-105 233-233s-104-232-233-232c-128 0-232 104-232 232s104 233 232 233z m0 0m0-387c85 0 154 69 154 154s-69 154-154 154-153-69-153-154 69-154 153-154z m0 249c53 0 96-42 96-95s-43-95-96-95c-52 0-95 43-95 95s43 95 95 95z m0 0" horiz-adv-x="1000" />

<glyph glyph-name="green-energy" unicode="&#xe80f;" d="M838 447l-339 1 129 367c3 10 1 22-8 29-11 9-27 8-35-3-50-60-100-121-148-181-99-122-198-244-298-365-3-5-5-10-5-17 0-14 11-24 25-24l338-2-128-367c-3-10-1-22 8-29 10-9 27-8 35 3 52 64 102 123 151 182 100 121 201 242 295 365 4 4 6 9 6 15 0 14-12 26-26 26z m-314-372c-19-24-40-48-59-72l93 266c4 13-2 28-16 32-4 1-7 1-10 1l-319 1c88 108 175 216 264 324l56 69-93-265c-4-12 2-28 16-32 4-1 7-1 10-1l321-1c-85-109-173-216-263-322z m-98 708c-3 14-17 22-30 19-106-23-193-82-255-160s-100-178-100-285c0-84 23-165 65-235 42-70 101-128 176-168 13-7 28-2 34 11 7 13 2 28-11 34-65 36-118 87-156 150-36 61-57 134-57 208 0 95 32 182 88 252 55 70 134 122 227 144 14 3 22 17 19 30z m470-193c-41 69-100 128-173 168-12 7-28 2-35-10-6-11-2-28 10-34 65-36 117-87 154-149 37-61 56-132 56-207 0-96-33-184-89-254-56-70-136-122-230-143-14-3-23-16-19-30 3-14 16-22 30-19 104 23 194 81 257 160 64 79 102 179 102 287 1 82-22 162-63 231z" horiz-adv-x="1000" />

<glyph glyph-name="leaf" unicode="&#xe810;" d="M968 531c32 159 32 284 32 290 0 8-3 15-9 20-5 6-12 9-20 9-6 0-131 0-290-32-57-11-111-25-161-42 0 0-1 0-1 0-32-11-63-22-93-35-36-15-70-32-101-51-1 0-2-1-3-1-50-30-93-63-130-100-73-73-113-170-113-274 0-93 32-182 93-252l-163-163c-12-11-12-30 0-41 5-6 13-9 20-9s15 3 21 9l163 163c70-61 159-94 252-94 104 0 201 41 274 114 37 37 70 80 100 130 0 1 1 2 1 3 19 31 36 65 51 101 13 30 24 61 35 93 0 0 0 1 0 1 17 50 31 104 42 161z m-277 229c109 22 203 29 250 31-2-47-9-141-31-250-8-41-19-86-33-133l-278 0 171 170c11 12 11 30 0 42-12 11-30 11-42 0l-170-171v278c47 14 92 25 133 33z m106-542h-387l131 131 316 0c-16-44-36-89-60-131z m-298 489v-316l-131-131 0 387c42 24 87 44 131 60z m-362-392c0 88 34 170 96 232 24 24 49 45 77 64l0-410-97-96c-49 59-76 132-76 210z m560-232c-62-62-144-96-232-96-78 0-151 27-210 76l96 97h410c-19-28-40-53-64-77z m0 0" horiz-adv-x="1000" />

<glyph glyph-name="responsive" unicode="&#xe811;" d="M932 759h-773c-38 0-68-29-68-68v-227c0-14 9-23 23-23s22 9 22 23v227c0 14 10 23 23 23h773c14 0 23-9 23-23v-545c0-14-9-23-23-23h-546c-13 0-22-9-22-23s9-23 22-23h46v-68c0-14-9-23-23-23h-23c-13 0-22-9-22-22s9-23 22-23h319c13 0 22 9 22 23s-9 22-22 22h-23c-14 0-23 9-23 23v68h273c39 0 68 30 68 69v545c0 39-29 68-68 68z m-459-773c2 7 4 14 4 23v68h137v-68c0-9 2-16 4-23h-145z m413 273h-500c-13 0-22-9-22-23s9-22 22-22h500c14 0 23 9 23 22s-9 23-23 23z m-636 137h-182c-38 0-68-30-68-69v-318c0-39 30-68 68-68h182c39 0 68 29 68 68v318c0 39-29 69-68 69z m23-387c0-14-9-23-23-23h-182c-13 0-22 9-22 23v318c0 14 9 23 22 23h182c14 0 23-9 23-23v-318z" horiz-adv-x="1000" />

<glyph glyph-name="settings" unicode="&#xe812;" d="M642 130c-10 6-21 13-32 19 3 21 3 43 0 65 11 6 22 12 32 19 18 10 25 33 17 52 0 0 0 0 0 0l-23 55c-7 19-28 30-48 25-12-3-24-6-36-9-14 17-29 32-46 46 3 12 6 24 9 36 5 20-6 41-25 48l-55 23c-19 8-42 1-52-17-7-10-13-21-19-32-22 3-44 3-65 0-6 11-13 22-19 32-11 18-33 25-52 17l-56-23c-19-7-29-28-24-48 3-12 6-24 9-36-17-14-32-29-46-46-12 3-24 6-36 9-20 5-41-6-49-25l-23-55c-8-19 0-42 17-52 11-7 22-13 32-19-2-22-2-44 0-65-10-6-21-13-32-19-17-11-25-33-17-52l23-56c8-19 29-29 49-24 12 3 24 6 36 9 14-17 29-33 46-46-3-12-6-24-9-36-5-20 5-41 24-49l56-23c5-2 10-3 16-3 14 0 28 7 36 20 6 11 12 21 19 32 21-2 43-2 65 0 6-11 12-21 19-32 10-17 33-25 52-17l55 23c19 8 30 29 25 49-3 12-6 24-9 36 17 13 32 29 46 46 12-3 24-6 36-9 20-5 41 5 48 24l23 56c8 19 1 41-17 52z m-46-88c-11 3-23 6-35 9-16 4-33-2-44-15-11-15-25-29-41-41-13-10-19-28-14-44 3-12 6-23 9-34l-51-22c-6 11-12 21-18 31-9 15-25 23-42 21-19-2-38-2-58 0-16 2-33-6-41-21-6-10-12-21-18-31l-51 22c3 11 6 23 9 34 4 16-2 34-15 44-15 12-29 26-41 41-10 13-27 19-44 15-11-3-23-6-34-9l-22 51c11 6 21 12 31 18 15 8 23 25 21 41-2 20-2 39 0 58 2 17-6 33-21 42-10 6-20 12-31 18l22 51c11-3 23-6 34-9 17-5 34 1 44 14 12 16 26 30 41 41 13 11 19 28 15 44-3 12-6 24-9 35l51 21c6-10 12-20 18-31 8-14 25-23 41-20 20 2 39 2 58 0 17-3 33 6 42 20 6 11 12 21 18 31l51-21c-3-11-6-23-9-35-5-16 1-33 14-44 16-11 30-25 41-41 11-13 28-19 44-14 12 3 24 6 35 9l21-51c-10-6-20-12-31-18-14-9-23-25-20-42 2-19 2-38 0-58-3-16 6-33 20-41 11-6 21-12 31-18l-21-51z m-124 198c0 0 0 0 0 0-32 77-121 114-199 82-78-32-115-121-83-199 16-38 45-67 83-83 19-7 39-11 58-11s40 4 59 11c77 33 114 122 82 200z m-99-158c-27-11-56-11-83 0-27 11-47 31-58 58-23 55 3 118 58 141 14 5 27 8 41 8 42 0 83-25 100-66 23-55-4-119-58-141z m597 571c-8 1-16 2-24 3-4 14-9 27-16 39 5 6 10 13 15 19 10 14 8 34-4 46l-31 31c-12 12-32 14-46 4-6-5-13-10-19-15-12 7-25 12-39 16-1 8-2 16-3 24-3 17-18 30-35 30h-44c-17 0-32-13-35-30-1-8-2-16-3-24-14-4-27-9-39-16-6 5-13 10-19 15-14 10-34 8-46-4l-31-31c-12-12-14-32-4-46 5-6 10-13 15-19-7-12-12-25-16-39-8-1-16-2-24-3-17-3-30-18-30-35v-44c0-17 13-32 30-35 8-1 16-2 24-3 4-14 9-27 16-39-5-6-10-13-15-19-10-14-8-34 4-46l31-31c12-12 32-14 46-4 6 5 13 10 19 15 12-7 25-12 39-16 1-8 2-16 3-24 3-17 18-30 35-30h44c17 0 32 13 35 30 1 8 2 16 3 24 14 4 27 9 39 16 6-5 13-10 19-15 14-10 34-8 46 4l31 31c12 12 14 32 4 46-5 6-10 13-15 19 7 12 12 25 16 39 8 1 16 2 24 3 17 3 30 18 30 35v44c0 17-13 32-30 35z m-12-73c-7-1-15-2-22-3-14-2-26-12-29-25-4-14-9-26-16-38-7-13-6-28 3-39 4-6 8-12 13-17l-23-23c-5 5-11 9-17 13-11 9-26 10-39 3-12-7-24-12-38-16-13-3-23-15-25-29-1-7-2-15-3-22h-32c-1 7-2 15-3 22-2 14-12 26-25 29-14 4-26 9-38 16-13 7-28 6-39-3-6-4-12-8-17-13l-23 23c5 5 9 11 13 17 9 11 10 26 3 39-7 12-12 24-16 38-3 13-15 23-29 25-7 1-15 2-22 3v32c7 1 15 2 22 3 14 2 26 12 29 25 4 14 9 26 16 38 7 13 6 28-3 39-4 6-8 12-13 17l23 23c5-5 11-9 17-13 11-9 26-10 39-3 12 7 24 12 38 16 13 3 23 15 25 29 1 7 2 15 3 22h32c1-7 2-15 3-22 2-14 12-26 25-29 14-4 26-9 38-16 13-7 28-6 39 3 6 4 12 8 17 13l23-23c-5-5-9-11-13-17-9-11-10-26-3-39 7-12 12-24 16-38 3-13 15-23 29-25 7-1 15-2 22-3v-32z m-212 107c-50 0-91-41-91-91 0-50 41-91 91-91s91 41 91 91c0 50-41 91-91 91z m0-141c-28 0-50 22-50 50 0 28 22 50 50 50 28 0 50-22 50-50 0-28-22-50-50-50z" horiz-adv-x="1000" />

<glyph glyph-name="shopping-bag" unicode="&#xe813;" d="M900-17l-58 649c-1 13-12 22-25 22h-121c0 108-88 196-196 196s-196-88-196-196h-121c-13 0-24-9-25-22l-57-649c0-1 0-1 0-2 0-72 66-131 148-131h503c81 0 148 59 148 131 0 1 0 1 0 2z m-400 817c81 0 146-65 146-146h-292c0 81 66 146 146 146z m252-900h-503c-54 0-98 36-99 80l56 625h98v-87c0-14 11-25 25-25s25 11 25 25v87h292v-87c0-14 11-25 25-25s25 11 25 25v87h98l56-625c-1-44-45-80-98-80z" horiz-adv-x="1000" />

<glyph glyph-name="chat" unicode="&#xe814;" d="M727 751h-671c-31 0-56-25-56-56v-403c0-31 25-56 56-56h44v-150c0-10 6-18 14-22 3-1 6-2 9-2 7 0 13 3 17 7l167 167h33c13 0 24 10 24 23 0 13-11 24-24 24 0 0-44 0-45 0-5 0-11-3-15-7l-133-133c0 0 0 118 0 119-1 12-11 21-24 21h-67c-5 0-9 4-9 9v403c0 5 4 9 9 9h671c5 0 9-4 9-9v-155c0-13 11-23 24-23s23 10 23 23v155c0 31-25 56-56 56z m217-289h-470c-31 0-56-25-56-56v-274c0-32 25-57 56-57h294l119-119c5-5 11-7 17-7 3 0 6 1 9 2 9 4 15 12 15 22v102h16c31 0 56 25 56 57v274c0 31-25 56-56 56z m9-330c0-6-4-10-9-10h-40c-12 0-23-9-24-21 0-1 0-71 0-71l-85 85c0 0 0 1-1 1 0 0 0 0-1 1-4 3-9 5-15 5h-304c-5 0-9 4-9 10v274c0 5 4 9 9 9h470c5 0 9-4 9-9v-274z m-244 160c-13 0-24-10-24-23 0-13 11-24 24-24 13 0 24 11 24 24 0 13-11 23-24 23z m-103 303c0 0-429 0-429 0-13 0-23-11-23-24s10-23 23-23h429c13 0 24 10 24 23s-11 24-24 24z m-266-156h-163c-13 0-23-11-23-24 0-13 10-23 23-23h163c13 0 24 10 24 23s-11 24-24 24z m259-147c-13 0-23-10-23-23 0-13 10-24 23-24 13 0 24 11 24 24 0 13-11 23-24 23z m220 0c-13 0-24-10-24-23 0-13 11-24 24-24 13 0 23 11 23 24 0 13-10 23-23 23z" horiz-adv-x="1000" />

<glyph glyph-name="favorites" unicode="&#xe815;" d="M922 456c18 18 25 44 17 68-8 24-28 41-53 45l-219 31c-4 1-8 4-10 8l-98 198c-11 23-34 37-59 37-25 0-48-14-59-37l-98-198c-2-4-6-7-10-8l-219-31c-25-4-45-21-53-45-8-24-1-50 17-68l158-154c3-3 5-8 4-12l-37-218c-5-25 5-49 26-64 20-15 47-17 69-5l196 103c4 2 8 2 12 0l196-103c10-6 20-8 31-8 13 0 27 4 38 13 21 15 31 39 27 64l-38 218c-1 4 1 9 4 12l158 154z m-214-175l38-218c1-7-4-11-6-13-2-1-7-4-14-1l-195 103c-10 5-20 8-31 8-10 0-21-3-31-8l-195-103c-7-3-12 0-14 1-2 2-7 6-5 13l37 218c4 22-4 43-19 59l-158 154c-6 5-4 11-4 13 1 3 4 8 11 9l219 32c21 3 40 17 49 36l98 198c4 7 10 8 12 8 3 0 9-1 12-8v0l98-198c9-19 28-33 49-36l219-32c8-1 10-6 11-9 1-2 2-8-3-13l-159-154c-15-16-22-37-19-59z m100 525c-12 8-28 6-37-6l-28-39c-8-11-6-28 6-36 5-4 10-5 16-5 8 0 16 3 21 10l28 39c9 12 6 28-6 37z m-551-44l-28 38c-9 12-25 15-37 6-12-9-15-25-6-37l28-38c5-7 13-11 21-11 6 0 11 1 16 5 12 8 14 25 6 37z m-160-511c-5 14-20 21-33 17l-46-15c-14-5-21-19-17-33 4-11 14-18 25-18 3 0 6 0 9 1l45 15c14 4 21 19 17 33z m403-293c-15 0-26-12-26-27v-47c0-15 11-27 26-27 15 0 26 12 26 27v47c0 15-11 27-26 27z m482 295l-45 15c-14 4-29-3-34-17-4-14 3-29 17-34l46-14c2-1 5-2 8-2 11 0 21 8 25 19 4 14-3 28-17 33z" horiz-adv-x="1000" />

<glyph glyph-name="layers" unicode="&#xe816;" d="M1000 350c0 21-12 40-31 50l-74 37 74 37c0 0 0 0 0 0 19 10 31 29 31 50 0 21-12 40-31 49l-420 210c-31 16-67 16-98 0l-420-210c-19-9-31-28-31-49 0-21 12-40 31-50l74-37-74-37c-19-10-31-29-31-50s12-40 31-50l74-37-74-37c-19-9-31-28-31-50 0-21 12-40 31-49l420-210c15-8 32-12 49-12 17 0 34 4 49 12l420 210c19 9 31 28 31 49 0 22-12 41-31 50l-74 37 74 37c19 10 31 29 31 50z m-949 165c-4 3-5 7-5 9s1 6 5 8l421 210c9 5 18 7 28 7 10 0 20-2 29-7l420-210c4-2 5-6 5-8s-1-6-5-9l-420-210c-18-9-40-9-57 0l-421 210z m898-330c4-2 5-6 5-9 0-2-1-6-5-8l-420-210c-18-9-40-9-57 0l-421 210c-4 2-5 6-5 8 0 3 1 7 5 9l106 53 294-148c15-7 32-11 49-11 17 0 34 4 49 11l295 148 105-53z m0 157l-420-211c-18-9-40-9-57 0l-421 211c-4 2-5 6-5 8 0 2 1 6 5 9l106 52 294-147c15-8 32-12 49-12 17 0 34 4 49 12l295 147 105-52c4-3 5-7 5-9 0-2-1-6-5-8z" horiz-adv-x="1000" />

<glyph glyph-name="tag_left_new" unicode="&#xe81a;" d="M371 784h248v-88h-159v-693h159v-87h-248v868z" horiz-adv-x="1000" />

<glyph glyph-name="tag_right_new" unicode="&#xe81b;" d="M620-84h-249v87h159v693h-159v88h248v-868z" horiz-adv-x="1000" />

<glyph glyph-name="decorative" unicode="&#xe81c;" d="M500-140c-270 0-490 220-490 490 0 270 220 490 490 490 270 0 490-220 490-490 0-270-220-490-490-490z m0 955c-256 0-464-209-464-465 0-256 208-465 464-465 256 0 465 209 465 465 0 256-209 465-465 465z m2-648c-2 0-4 0-5 1-48 1-92 20-125 53-35 35-54 81-54 129 0 49 19 95 54 129 34 35 80 54 129 54h1c48 0 93-19 127-54 34-33 52-77 53-123 0-2 1-4 1-6 0-49-19-95-53-129 0 0 0 0 0 0-34-34-79-53-126-54-1 0-2 0-2 0 0 0 0 0 0 0z m-113 72c30-29 69-46 111-46h2c1 0 3 0 5-1 39 2 76 18 105 47 28 28 44 67 45 109-1 1-1 3-1 5 0 41-16 79-45 108-30 30-68 46-109 46h-2c-42 0-81-16-111-46-29-29-46-69-46-111 0-42 17-81 46-111z m113-290h-2c-106 0-207 42-283 118-75 76-117 176-117 283l0 1c0 1 0 2 0 3 1 106 42 205 116 279 0 0 1 0 1 1 76 75 177 116 283 116h2c105 0 209-42 284-117 1 0 1-1 1-1 74-82 115-182 115-282 0-106-42-207-119-283-76-76-176-118-281-118z m-266 667c0-1-1-1-1-1-70-69-109-162-109-262 0 0 0 0 0 0 0-1 0-1 0-1l0-2c0-100 39-194 109-265 71-71 165-110 265-110h2c99 0 192 39 263 110 72 72 111 166 111 265 0 95-38 189-108 265 0 0 0 0-1 1-70 69-167 109-265 109h-2c-99 0-193-39-264-109z m266-449c-2 0-4 0-5 1-48 1-92 20-125 53-33 33-52 77-54 123 0 1 0 1 0 2 0 2 0 3 0 4 0 49 19 95 54 129 34 35 80 54 129 54h1c48 0 93-19 127-54 34-33 52-77 53-123 0-2 1-4 1-6 0-49-19-95-53-129 0 0 0 0 0 0-34-34-79-53-126-54-2 0-2 0-2 0 0 0 0 0 0 0z m-113 72c30-29 69-46 111-46h2c1 0 3 0 5-1 39 2 76 18 105 47 28 28 44 68 44 111 0 1 0 2 0 3l0 0c0 41-16 79-45 108-30 30-68 46-109 46h-2c-42 0-81-16-111-46-29-29-46-69-46-111 0-42 17-81 46-111z m115-76h-4c-49 0-94 21-129 56l18 17c30-30 69-47 111-47h4v-26z m0-213c-7 0-13 5-13 12v218c0 7 6 13 13 13 7 0 13-5 13-13v-218c0-7-6-12-13-12z m0 557c-7 0-13 6-13 13v218c0 7 6 13 13 13 7 0 13-6 13-13v-218c0-7-6-13-13-13z m382-171h-218c-7 0-13 5-13 13 0 7 6 13 13 13h218c7 0 13-6 13-13 0-8-6-13-13-13z m-557 0h-218c-7 0-13 5-13 13 0 7 5 13 13 13h217c7 0 13-6 13-13 0-8-5-13-12-13z m445-272c-3 0-6 1-9 4l-154 153c-5 5-5 13 0 18 5 5 13 5 18 0l154-153c5-5 5-13 0-18-2-3-6-4-9-4z m-394 394c-3 0-6 1-9 4l-154 153c-5 5-5 13 0 18 5 5 13 5 18 0l154-153c5-5 5-13 0-18-2-3-5-4-9-4z m240 0c-3 0-6 1-9 4-5 5-5 13 0 18l154 153c5 5 13 5 18 0 5-5 5-13 0-18l-154-153c-2-3-5-4-9-4z m-394-394c-3 0-6 1-9 4-5 5-5 13 0 18l154 153c5 5 13 5 18 0 5-5 5-13 0-18l-154-153c-2-3-5-4-9-4z" horiz-adv-x="1000" />

<glyph glyph-name="office" unicode="&#xe81d;" d="M978-142h-953c-7 0-13 6-13 13v953c0 7 6 13 13 13h953c7 0 12-6 12-13v-953c0-7-5-13-12-13z m-941 25h928v929h-928v-929z m845 858h-762c-7 0-13-5-13-12v-763c0-7 6-13 13-13h762c7 0 13 6 13 13v763c0 7-6 12-13 12z m-12-258h-234v233h234v-233z m-492-258v232h232v-232h-232z m232-25v-221h-232v221h232z m-258 25h-219v232h219v-232z m26 258v233h232v-233h-232z m258-26h234v-232h-234v232z m-284 259v-233h-219v233h219z m-219-516h219v-221h-219v221z m503-221v221h234v-221h-234z" horiz-adv-x="1000" />

<glyph glyph-name="single" unicode="&#xe81e;" d="M838-135h-670c-7 0-13 5-13 12v951c0 7 6 12 13 12h671c7 0 12-5 12-12v-950c0-8-6-13-13-13z m-658 25h646v925h-646v-925z m560 70h-475c-7 0-12 6-12 13v761c0 7 5 12 12 12h475c7 0 13-5 13-12v-761c0-7-6-13-13-13z m-462 25h450v736h-450v-736z m105 371c-3 0-6 1-9 3-5 5-5 13 0 18l229 234c5 5 13 5 18 0 5-5 5-13 0-18l-229-233c-2-3-5-4-9-4z m19 92c-3 0-6 1-9 3-5 5-5 13 0 18l108 108c5 5 13 5 18 0 5-5 5-13 0-18l-108-108c-2-2-5-3-9-3z m71-71c-3 0-6 1-9 3-5 5-5 13 0 18l108 108c5 5 13 5 18 0 5-5 5-13 0-18l-108-108c-2-2-6-3-9-3z" horiz-adv-x="1000" />

<glyph glyph-name="standard" unicode="&#xe81f;" d="M838-135h-671c-7 0-13 5-13 12v951c0 7 6 12 13 12h671c7 0 12-5 12-12v-950c0-8-5-13-12-13z m-659 25h646v925h-646v-925z m292 70h-209c-7 0-13 5-13 12v761c0 7 6 12 13 12h209c7 0 12-5 12-12s-5-13-12-13h-197v-735h197c7 0 12-6 12-13 0-7-5-12-12-12z m2 0c-7 0-12 5-12 12v761c0 7 5 12 12 12s13-5 13-12v-761c0-7-6-12-13-12z m279 11c0-7-6-13-13-13h-202c-7 0-13 6-13 13v760c0 7 6 13 13 13h202c7 0 13-6 13-13v-760z m-203 12h178v735h-178v-735z" horiz-adv-x="1000" />

<glyph glyph-name="vintage" unicode="&#xe820;" d="M833-131h-665c-7 0-13 6-13 13v609c0 190 155 345 345 345 190 0 345-155 345-345v-610c0-6-5-12-12-12z m-653 25h640v597c0 176-143 320-320 320-176 0-320-144-320-320v-597z m289 55h-207c-7 0-14 7-14 14v531c0 125 95 231 219 246 4 1 7 0 10-3 2-2 4-6 4-9v-765c-1-7-5-14-12-14z m-196 25h182v739c-106-19-182-111-182-219v-520z m460-25h-201c-7 0-14 7-14 14v764c0 4 2 7 5 10 2 2 7 3 10 3 53-8 103-33 140-70 46-46 71-108 71-176v-531c0-7-4-14-11-14z m-190 25h175v520c0 61-22 117-63 158-31 30-68 51-112 60v-738z m190 477h-201c-7 0-7 9-7 16 0 7 0 9 7 9h201c7 0 12-5 12-12s-5-13-12-13z m-270 0h-201c-7 0-4 6-4 13s-3 12 4 12h201c7 0 13-5 13-12s-6-13-13-13z m169-502h-94c-7 0-12 5-12 12s5 13 12 13h80v523c0 42-36 81-88 94 0 0 0 0-1 0-7 1-1 8 1 15 1 7-3 11 4 10 1 0 1 0 2-1 63-15 107-63 107-117v-534c0-8-4-15-11-15z m-175 0h-95c-7 0-14 7-14 14v534c0 54 45 103 108 118 3 0 7 1 10 2 7 1 14-3 15-10 2-7-3-14-10-15-3 0-6-1-9-2-51-12-89-51-89-93v-524h83c7 0 13-5 13-12s-6-12-12-12z m145 613c-3 0-7 1-9 4-5 5-5 13 0 17l72 72c5 5 13 5 17 0 5-5 5-13 0-17l-72-72c-2-2-5-4-8-4z m-211 2c-3 0-6 1-9 4l-70 70c-5 5-5 13 0 17 5 5 13 5 18 0l70-70c5-5 5-13 0-17-2-3-6-4-9-4z" horiz-adv-x="1000" />

<glyph glyph-name="wide" unicode="&#xe821;" d="M525 43h375c5 0 10 4 10 10v600c0 5-5 10-10 10h-375c-6 0-10-5-10-10v-600c0-6 4-10 10-10z m199 600h166v-177h-166v177z m0-197h166v-184h-166v184z m0-204h166v-179h-166v179z m-189 401h169v-177h-169c0 75 0 177 0 177z m0-197h169v-184h-169c0 83 0 102 0 184z m0-204h169v-179h-169c0 0 0 102 0 179z m445 496h-960c-6 0-10-5-10-10v-751c0-5 4-10 10-10h960c5 0 10 5 10 10v751c0 5-5 10-10 10z m-10-751h-940v731h940v-731z m-875 56h375c5 0 10 4 10 10v600c0 5-5 10-10 10h-375c-6 0-10-5-10-10v-600c0-6 4-10 10-10z m178 219h-168v184h168v-184z m-168-20h168v-179h-168v179z m188-179v179h167v-179h-167z m167 199h-167v184h167v-184z m0 204h-167v177h167v-177z m-187 177v-177h-168v177h168z" horiz-adv-x="1000" />
</font>
</defs>
</svg>
